#TITLE:~Asterisk~;
#SUBTITLE:Bleach ost 1;
#ARTIST:Shiro Sacgisu;
#TITLETRANSLIT:;
#SUBTITLETRANSLIT:;
#ARTISTTRANSLIT:;
#CREDIT:;
#BANNER:02~Asterisk~(OST Ver.)-BN.jpg;
#BACKGROUND:bg.jpg;
#LYRICSPATH:;
#CDTITLE:!NemCDT.png;
#MUSIC:02 ~Asterisk~ (OST Ver.).mp3;
#OFFSET:-0.443;
#SAMPLESTART:24.427;
#SAMPLELENGTH:20.636;
#SELECTABLE:YES;
#BPMS:0.000=170.000;
#STOPS:15.250=0.088
,25.625=0.088
,36.167=0.088
,67.500=0.118
,150.333=0.588
,161.750=0.088
,172.375=0.110
,173.125=0.132
;
#BGCHANGES:;
// cache tags:
#FIRSTBEAT:0.000;
#LASTBEAT:330.000;
#SONGFILENAME:Songs/Music V.I.P ^_^/BLEACH~Asterisk~ (OST Ver.)/Bloody Tears (IIDX EDITION).sm;
#HASMUSIC:1;
#HASBANNER:1;
#MUSICLENGTH:122.574;
// end cache tags

//---------------dance-single - o~----------------
#NOTES:
     dance-single:
     o~:
     Hard:
     12:
     0.711,0.669,0.416,0.824,1.000,458.000,51.000,101.000,0.000,8.000:
0000
1100
0000
0000
0000
0100
0000
0000
0100
0000
0000
0020
0000
0030
0000
2002
,
0000
0000
0000
3003
0000
0000
0000
0000
0000
0000
0000
0000
0000
0000
0000
0000
0000
0000
0000
0000
0000
1000
0000
0000
0000
0000
0100
0000
0000
0000
0000
0000
0000
0000
0010
0000
0000
0000
0100
0000
0000
0000
0000
0000
2000
0000
0000
0000
,
3000
0000
0000
0000
0000
0000
0000
0000
0000
0000
0000
0000
0000
0000
0000
0000
0001
0000
0000
0000
0000
0000
0000
0000
0010
0000
0000
0000
0000
0000
0000
0000
0000
0000
0000
0000
0000
0000
0000
0000
0001
0000
0000
0000
0000
0000
0000
0000
0100
0000
0000
0000
0000
0000
0000
0000
0000
0000
0000
0000
0000
0000
0000
0000
0000
0000
0000
0000
0000
0000
0000
0000
0000
0000
0000
0000
0000
0000
0000
0000
0201
0000
0000
0000
0000
0000
0000
0000
0000
0000
0000
0000
0000
0000
0000
0000
0300
0000
0000
0000
0000
0000
0000
0000
0000
0000
0000
0000
0000
0000
0000
0000
0100
0000
0000
0000
0000
0000
0000
0000
0000
0000
0000
0000
0000
0000
0000
0000
0000
0000
0000
0000
0000
0000
0000
0000
0000
0000
0000
0000
0000
0000
0000
0000
0200
0000
0000
0000
0000
0000
0300
0000
0000
0000
0000
0000
0000
0000
0000
0000
0010
0000
0000
0000
0000
0000
0000
0000
0000
0000
0000
0000
0000
0000
0000
0000
0000
0000
0000
0000
0000
0000
0000
0000
0000
0000
0000
0000
0000
0000
0000
0000
,
2000
0000
0000
0000
3010
0000
0000
0000
0200
0000
0300
0000
0001
0000
0000
0000
0000
0000
2000
0000
3000
0000
0020
0000
0000
0000
2030
0000
0000
0000
3000
0000
0000
0000
0000
0000
0000
0000
0000
1001
0000
0000
0000
0000
0000
0000
0000
0000
,
2000
0000
3000
0200
0000
0300
0000
0000
0000
0020
0000
0000
0000
2030
0000
0000
,
0000
3000
0000
0000
0000
0000
0002
0000
0000
0020
0003
0000
0000
0030
1002
0000
,
0000
0000
0203
0000
0000
0300
1010
0000
0000
0000
2000
3010
0200
0300
2000
3000
,
0020
0030
0001
0020
0030
0100
1000
0000
0000
0000
0010
0000
0001
0200
0300
1000
,
0010
0000
0000
1000
0000
0000
0001
0000
0000
0000
0000
0000
0000
0000
0000
0210
0000
0000
0300
0000
0000
0001
0000
0000
0000
0000
0000
0100
0000
0000
0000
0000
2000
0000
0000
0000
3000
0000
0000
0102
0000
0000
0000
0000
0000
0003
0000
0000
,
0000
0000
1100
0000
0000
0000
0000
0000
0000
0000
0000
0000
0000
0000
0020
0000
0000
0000
0000
0000
0000
0002
0000
0000
0030
0000
0000
0000
0000
0000
0000
0000
0000
0003
0200
0000
0000
0000
0000
0000
0000
0000
0000
0000
0000
0000
0300
0000
,
0000
2000
0000
0000
0000
0000
0000
0000
0000
3000
0000
0000
0000
0000
0000
0020
0000
0000
0200
0000
0000
0000
0030
0000
,
0000
2300
0000
0000
0000
0000
0000
0000
3000
0020
0000
0000
0000
0000
0000
0000
0030
0000
0000
0000
0000
0000
1000
0000
,
0200
0000
0300
0000
0000
0000
0001
0000
0001
0000
0000
0000
0000
0000
0000
0000
2000
0000
0000
0000
3020
0000
0000
0000
0130
0000
0000
0000
0000
0000
0100
0000
0000
0020
0000
0000
0030
0000
0000
0000
0000
0000
0000
0000
0000
2100
0000
0000
,
3000
0000
0000
0002
0000
0000
0003
0000
1000
0000
0000
0000
0100
0000
0000
0000
0010
0000
0000
0000
0001
0000
0000
0000
0001
0000
0000
0000
0100
0000
0000
0000
0000
0000
0000
0000
0000
0000
0000
0001
0000
0000
0001
0000
0000
0000
0000
0000
,
0000
0000
0000
0220
0000
0000
0330
0000
0000
0000
0000
0000
1000
0000
0100
0000
0000
0100
0000
0000
1000
0000
0000
1000
,
0000
0010
0000
0100
0000
0000
0001
0000
0100
0000
0000
0000
0000
0000
0000
0000
0000
0000
0202
0300
0000
0000
0013
0000
,
1000
0000
0000
0000
0000
0000
0200
0000
0300
0000
0000
0000
0000
0000
0000
0100
0000
0000
0000
0000
0000
0010
0000
0000
0000
0000
0000
0000
0000
0000
2002
0000
0000
0000
0000
0000
0000
0000
0000
0000
0000
0000
3003
0000
0000
0000
0000
0000
,
0000
0000
0000
0000
0000
0000
2200
0000
0000
0000
0000
0000
0000
0000
0000
0000
0001
0000
0000
0000
0000
0001
0000
0000
3300
0000
0000
0000
0000
0000
0022
0000
0000
0000
0000
0000
0000
0000
0000
0000
1000
0000
0000
0000
0000
1000
0000
0000
,
0033
0000
0000
0000
0000
0000
0220
0000
0000
0000
0000
0000
0000
0000
0000
0000
1000
0000
0000
0000
0000
0001
0000
0000
0330
0000
0000
0000
0000
0000
2002
0000
0000
0000
0000
0000
0000
0000
0000
0000
0010
0000
0000
0000
0000
0100
0000
0000
,
3003
0000
0000
0001
0010
0000
0001
0000
0010
0000
0001
0000
0000
0000
0100
0000
0010
0000
0100
0000
0000
0000
1000
0000
,
0100
1000
0010
0001
0010
0000
1000
0100
1000
0100
1000
0000
,
0010
0100
0010
0100
0010
0000
1000
0100
1000
0100
0010
0001
,
0010
0001
0010
0100
1000
0000
1000
0100
1000
0010
0100
0010
,
0000
0100
0001
0100
0001
1000
0100
1000
0010
1000
0100
0010
,
1000
0100
1000
0001
0010
0100
0010
1000
0100
0010
0100
1000
,
0010
0001
0100
0010
0100
1000
0010
0100
0001
1000
0100
1000
,
0100
1000
0100
1000
0100
0100
0010
0100
0100
0010
0100
0100
,
0001
0000
0000
0000
0010
0000
0000
0000
1000
0000
0000
0000
0100
0000
0000
0000
0010
0000
0000
0000
0100
0000
0000
0000
0000
0000
0000
0000
0000
0000
0000
0000
0000
1020
0000
0000
0000
0000
0000
0000
0000
0000
0030
0000
0000
0200
0000
0000
,
0300
0000
0000
2000
3000
0010
1000
0100
0001
0010
2000
0000
3002
0000
0023
0000
,
0030
0000
0000
2100
0200
0000
3300
0000
0010
0000
1000
0000
0100
0000
0001
0000
0010
0000
0100
0000
0012
0000
0013
0000
,
0010
0000
0100
1000
0001
0100
0010
0200
0301
1000
0100
0001
,
0001
0100
0001
0001
0010
0010
1000
1000
0100
0100
0000
0000
,
0012
0003
2100
3000
0002
0013
0100
2000
3000
0110
0000
0000
,
2100
3010
0100
0100
0010
0010
0001
1000
1000
0010
0001
0100
,
1000
0012
0003
0001
0010
0100
1000
1000
0100
0010
0001
0001
,
1000
1000
0010
0010
0100
0002
0003
0000
0201
0300
0010
1000
,
0100
1000
0001
0010
1000
0010
2002
3003
0000
0000
1100
0000
,
0110
0000
0011
0000
1010
0000
2002
3003
0000
1000
0100
0100
,
0000
1000
0100
0100
0001
0010
0100
1000
1000
0010
0001
0000
,
2010
3001
0010
0100
0010
0001
1000
0110
0000
0001
0010
0100
,
0010
1000
0001
0010
1000
0202
0303
1010
0000
0101
0000
0100
,
0010
1000
0100
1000
0001
0000
1020
0030
1000
0100
0001
0010
,
1000
0100
0000
1001
0000
0110
0000
1001
0000
0110
0000
2002
,
3003
0000
0000
0000
0000
0000
0000
0000
0000
0000
0000
0000
0000
0000
0000
0000
0000
0000
0000
0000
0000
1100
0000
0000
0000
0000
0000
0000
0000
0000
0000
0000
0000
0000
0000
0000
0000
0000
0000
0000
0000
0000
0000
0000
0000
0000
0000
0000
0000
0000
0000
0000
0000
0000
0100
0000
0000
0000
0000
0000
0000
0000
0000
0000
0000
0000
0000
0000
0000
0000
0000
0000
0000
0000
0000
0000
0000
0000
0100
0000
0000
0000
0000
0000
0000
0000
0000
0000
0000
0000
0000
0000
0000
0000
0000
0000
0000
0000
0000
0000
0000
0000
0000
0000
0000
0000
0000
0000
0020
0000
0000
0000
0000
0000
0000
0000
0000
0000
0000
0000
0000
0000
0000
0000
0000
0000
0000
0000
0000
0000
0000
0000
0030
0000
0000
0000
0000
0000
0000
0000
0000
0000
0000
0000
0000
0000
0000
0000
0000
0000
0000
0000
0000
0000
0000
0000
0000
0000
0000
0000
2002
0000
0000
0000
0000
0000
0000
0000
0000
0000
0000
0000
0000
0000
0000
0000
0000
0000
0000
0000
0000
0000
0000
0000
0000
0000
0000
0000
0000
0000
0000
0000
,
3003
0000
0000
0000
0000
0000
0000
1000
0000
0000
0000
0100
0000
0000
0000
0010
0000
0100
0000
0000
0000
1000
0000
0001
,
0010
0000
0001
0100
0000
0000
0201
0000
0300
0000
0000
0000
0100
0000
0000
0000
0200
0300
0010
0000
0000
0000
1000
0000
,
0010
0000
0000
0000
0100
0000
0000
0000
0001
0000
0000
0000
1000
0000
0000
0000
0100
0000
0000
0000
1000
0000
0000
0000
0200
0000
0000
0000
0300
0000
0000
0000
0000
0000
0000
0000
0000
0000
0000
0000
0000
0000
0000
0000
0000
0120
0000
0000
,
0130
0000
0000
0100
0000
0000
0000
0000
1000
0000
0000
0000
0100
0000
0000
0000
0001
0000
0000
0000
0000
0000
0000
0000
1000
0000
0000
0000
1000
0000
0000
0000
0010
0000
0000
0000
0010
0000
0000
0000
1000
0000
0000
0000
0010
0000
0000
0000
,
0100
0001
0010
0100
1000
0020
0230
0300
1000
0010
0000
0000
,
0101
0000
0000
0000
0000
0000
0000
0000
1010
0000
0000
0000
0000
0000
0000
0000
2020
0000
0000
0000
3030
0000
0000
0000
0000
0000
0000
0000
2000
0000
0000
0000
3000
0000
0000
0000
0010
0000
0000
0000
0000
0000
0100
0000
0000
0001
0000
0000
,
0000
1000
0000
0100
0000
0000
0001
0000
0010
0000
2000
3000
0000
0000
0010
0000
0200
0300
0000
0000
0000
0000
0001
0000
,
1000
0000
0000
0010
1000
0000
0000
0000
0100
0000
0000
0010
0000
2000
0000
0000
3000
0000
0110
0000
0000
0000
0000
0000
,
0000
0000
0000
0000
0010
0000
1000
0100
1000
0100
0010
0001
0000
0001
0100
0000
0010
1000
0100
0010
0000
1000
0000
0010
,
0100
0010
0001
0000
1000
0000
0200
0000
0000
0000
0001
0300
0000
0000
0000
0010
1000
0001
0100
0000
0000
0010
1000
0001
,
0100
0000
0000
0010
0100
1000
0001
0000
0000
0010
0010
1000
0000
1000
0000
0100
0000
0100
0000
0000
0000
0000
0000
0000
;

//---------------dance-single - p~----------------
#NOTES:
     dance-single:
     p~:
     Challenge:
     14:
     1.000,1.000,1.000,0.587,0.950,755.000,354.000,72.000,0.000,77.000:
0101
0000
0000
0000
0000
0000
0000
0000
0100
0000
0000
0000
0000
0000
0000
0000
0100
0000
0000
0000
0000
0000
0000
0000
0200
0300
0000
0000
0000
0000
0000
0000
,
0100
0000
0000
0000
1000
0000
0000
0000
0100
0000
0000
0000
1000
0000
0000
0000
0100
0000
0000
0000
1000
0000
0000
0000
0200
0300
0000
0000
0012
0000
0003
0000
,
0102
0000
0003
0000
0000
0000
0000
0000
0100
0000
0000
0000
0000
0000
0000
0000
0100
0000
0000
0000
0000
0000
0000
0000
0200
0300
0000
0000
0000
0000
0000
0000
,
0100
0000
0000
0000
1000
0000
0000
0000
0100
0000
0000
0000
1000
0000
0000
0000
0100
0000
0000
0000
1000
0000
0000
0000
0200
0300
0000
0000
0010
0000
0000
0000
,
0102
0000
0003
0000
0000
0000
0000
0000
0111
0000
0000
0000
0000
0000
0000
0000
0101
0000
0000
0000
0000
0000
0000
0000
0211
0300
0000
0000
0000
0000
0000
0000
,
0101
0000
0000
0000
1000
0000
0000
0000
0111
0000
0000
0000
1000
0000
0000
0000
0101
0000
0000
0000
1000
0000
0000
0000
0211
0300
0000
0000
0110
0000
0000
0000
,
0101
0000
0000
0000
0000
0000
0000
0000
0111
0000
0000
0000
0000
0000
0000
0000
0101
0000
0000
0000
0000
0000
0000
0000
0211
0300
0000
0000
0000
0000
0000
0000
,
0100
0000
2000
3000
0100
0000
2000
3000
0100
0000
2000
3000
0100
0000
0010
0000
,
0102
0000
0003
0000
0000
0000
0000
0000
0111
0000
0000
0000
0001
0000
0000
0000
0101
0000
0000
0000
0000
0000
0000
0000
0211
0300
0000
0000
0010
0000
0000
0000
,
0101
0000
0000
0000
0000
0000
0000
0000
0111
0000
0000
0000
0010
0000
0000
0000
1101
0000
0000
0000
0000
0000
0000
0000
1210
0300
0000
0000
0100
0000
0000
0000
,
1001
0000
0000
0000
0000
0000
0000
0000
0111
0000
0000
0000
0001
0000
0000
0000
0101
0000
0000
0000
0000
0000
0000
0000
0211
0300
0000
0000
0010
0000
0000
0000
,
0101
0000
0111
0010
0101
0010
0111
0100
,
1000
0000
0000
0000
0001
0000
0000
0000
0110
0000
0000
0000
0001
0000
0000
0000
0101
0000
1000
0000
0001
0000
0000
0000
0210
0300
0001
0000
0010
0000
0000
0000
,
0101
0000
0000
0000
0001
0000
0000
0000
0110
0000
0001
0000
0010
0000
0000
0000
1100
0000
0001
0000
0010
0000
0000
0000
1210
0300
0001
0000
0100
0000
0000
0000
,
1002
0013
0100
1000
0010
1000
0001
1000
0102
0013
0001
0010
0100
1000
0010
1000
,
0102
0000
0103
0000
0100
0000
0100
0000
0102
0000
0103
0000
0100
0000
0100
0000
0102
1000
0103
0010
0101
1000
0100
0010
0102
1000
0103
0010
0101
1000
0100
0010
,
0101
0000
0000
0000
,
1001
0000
0010
1000
0101
0000
0010
0000
0100
0000
0010
1000
0101
0000
1000
0000
,
0100
0000
0010
1000
0101
0000
0010
0000
0100
0000
0010
1000
0101
0000
1001
0000
,
1001
0000
0010
1000
0101
0000
0010
0000
0100
0000
0010
1000
0101
0000
1000
0000
,
1101
0000
0010
1000
0101
0000
0010
0000
1101
0000
0010
1000
1101
0000
1000
0000
,
1002
0003
0010
1000
0101
0000
0010
0000
0100
0000
0010
1000
0101
0000
1000
0000
,
0100
0000
0010
1000
0101
0000
0010
0000
0100
0000
0010
1000
0101
0000
1001
0000
,
1002
0003
0010
1000
0101
0000
1011
0000
1102
0003
0010
1000
0101
0000
1001
0000
,
1102
0003
0010
0000
1002
0003
0010
0000
1102
0003
1011
0000
1102
0003
1002
0000
,
2010
3000
0010
0100
0010
0000
0010
0100
0000
0100
0010
0100
2010
3100
0000
0100
,
2010
3100
2010
3100
2010
3100
2010
3100
1010
1010
1010
1013
0000
0000
1000
0100
,
1001
0000
0010
0001
1010
0000
0100
0000
1000
0000
0100
0000
0011
0000
0100
0000
,
1020
0030
1000
0001
1010
0100
0010
0100
0010
0100
0010
0000
0110
0000
0101
0000
,
1100
0000
0010
0001
1010
0100
1000
0100
0001
0010
0100
0010
1001
0010
0001
0100
,
1020
0030
1000
0001
1010
0100
1000
0100
0010
0000
0010
0001
0110
0000
0100
0010
,
1100
0000
0010
0001
0110
1000
0001
1000
0010
0100
1000
0100
1001
0100
0010
0001
,
1020
0030
1000
0001
1010
0100
0010
0100
0010
0100
0010
0000
0110
0000
0101
0000
,
1100
0000
0010
0001
1010
0100
1000
0100
0001
0010
0100
0010
1001
0010
0001
0100
,
0021
0030
0001
1000
0101
0010
0100
0010
0101
1010
1001
1010
0101
1010
0011
1010
,
1001
0000
0000
1100
0000
0000
0111
0000
0101
0000
0000
1100
0000
0000
0111
0000
,
0101
0000
0000
1100
0000
0000
0211
0300
0101
1010
0011
1010
0101
1010
1001
1010
,
0101
0000
0111
1100
0000
0000
0111
0000
0101
0000
0111
1100
0000
0000
0111
0000
,
0101
0000
0111
1100
0000
0000
0110
0100
1000
1010
0101
1010
0101
1010
0100
0010
,
0101
0000
0000
1100
0000
0000
0111
0000
0101
0000
0000
1100
0000
0000
0111
0000
,
0101
0000
0000
1100
0000
0000
0211
0300
0101
1010
0011
1010
0101
1010
1001
1010
,
0101
0000
0111
1100
0000
0000
0111
0000
0101
0000
0111
1100
0000
0000
0111
0000
,
0101
0000
0111
1100
0000
0000
0111
0100
1001
0000
0001
0000
0001
1000
0000
0000
,
1001
0000
0000
0000
0010
0000
1000
0000
0101
0000
0000
0000
0010
0000
0000
0000
0100
0000
0000
0000
0010
0000
1000
0000
0201
0300
0000
0000
1000
0000
0000
0000
,
0100
0000
0000
0000
0010
0000
1000
0000
1001
0000
0000
0000
0010
0000
0000
0000
0100
0000
0000
0000
0010
0000
1000
0000
0210
0300
0000
0000
1100
0000
0000
0000
,
0101
0000
0000
0000
0010
0000
1000
0000
0101
0000
0000
0000
0010
0000
0000
0000
0100
0000
0000
0000
0010
0000
1000
0000
0201
0300
0000
0000
1000
0000
0000
0000
,
0100
0000
0000
0000
0010
0000
1000
0000
1001
0000
0000
0000
0010
0000
0000
0000
0100
0000
0000
0000
0010
0000
1000
0000
0210
0300
0000
0000
1100
0000
0000
0000
,
0101
0000
0000
0000
0010
0000
1000
0000
0101
0000
0000
0000
0010
0000
0000
0000
0100
0000
0000
0000
0010
0000
1000
0000
0201
0300
0000
0000
1000
0000
0000
0000
,
0100
0000
0000
0000
0010
0000
1000
0000
1001
0000
0000
0000
0010
0000
0000
0000
0100
0000
0000
0000
0010
0000
1000
0000
0210
0300
0000
0000
1100
0000
0000
0000
,
0102
1003
0010
1000
0001
1000
0010
1000
0102
1003
0010
0001
0100
0001
1000
0001
,
0102
0000
0103
0000
0100
0000
0100
0000
0102
0000
0103
0000
0100
0000
0100
0000
0102
1000
0103
0010
0101
1000
0100
0010
0102
0010
0103
1000
0101
0010
0100
1000
,
0011
1001
0110
0011
0110
0011
1010
0110
,
1020
0030
1001
0000
0011
0000
1001
0000
1010
0000
0000
0000
1010
0000
0110
0000
,
1020
0000
1000
0000
1000
0000
1000
1000
1000
0000
1000
0000
1000
0000
0130
0000
,
1020
0030
0000
0000
0000
0000
0000
0000
0101
0000
0000
0000
0000
0000
0000
0000
,
1002
0003
0110
0000
1010
0000
1001
0000
0110
0000
1001
0000
0011
0000
1010
0000
,
0021
0030
0110
0000
1001
0000
0110
0000
0011
0000
0000
0000
0011
0000
0110
0000
,
1002
0000
1000
0000
1000
0000
1000
1000
1000
0000
1000
0000
1010
0000
0113
0000
,
0021
0030
0110
0000
1010
0000
0110
0000
1001
0000
0110
0000
1010
0000
0011
0000
,
0000
0000
0000
0000
0000
0000
0000
0000
0000
0000
0000
0000
0000
0000
1000
0100
,
1001
0000
0010
0001
1010
0000
0100
0000
1000
0000
0100
0000
0011
0000
0100
0000
,
1020
0030
1000
0001
1010
0100
0010
0100
0010
0100
0010
0000
0110
0000
0101
0000
,
1100
0000
0010
0001
1010
0100
1000
0100
0001
0010
0100
0010
1001
0010
0001
0100
,
1020
0030
1000
0001
1010
0100
1000
0100
0010
0000
0010
0001
0110
0000
0100
0010
,
1100
0000
0010
0001
0110
1000
0001
1000
0010
0100
1000
0100
1001
0100
0010
0001
,
1020
0030
1000
0001
1010
0100
0010
0100
0010
0100
0010
0000
0110
0000
0101
0000
,
1100
0000
0010
0001
1010
0100
1000
0100
0001
0010
0100
0010
1001
0010
0001
0100
,
0021
0030
0001
1000
0101
0010
0100
0010
0101
1010
1001
1010
0101
1010
0011
1010
,
1001
0000
0000
1100
0000
0000
0111
0000
0101
0000
0000
1100
0000
0000
0111
0000
,
0101
0000
0000
1100
0000
0000
0211
0300
0101
1010
0011
1010
0101
1010
1001
1010
,
0101
0000
0111
1100
0000
0000
0111
0000
0101
0000
0111
1100
0000
0000
0111
0000
,
0101
0000
0111
1100
0000
0000
0111
0100
1000
1010
0101
1010
0101
1010
0100
0010
,
0101
0000
0000
1100
0000
0000
0111
0000
0101
0000
0000
1100
0000
0000
0111
0000
,
0101
0000
0000
1100
0000
0000
0211
0300
0101
1010
0011
1010
0101
1010
1001
1010
,
0101
0000
0111
1100
0000
0000
0111
0000
0101
0000
0111
1100
0000
0000
0111
0000
,
0101
0000
0111
1100
0000
0000
0110
0100
1001
0000
0001
0000
0001
1220
0000
0000
,
0030
0000
0300
0000
;

//---------------dance-single - ----------------
#NOTES:
     dance-single:
     :
     Easy:
     1:
     0.000,0.000,0.000,0.000,0.000,0.000,0.000,0.000,0.000,0.000:
0000
0000
0000
0000
;

//---------------dance-single - ----------------
#NOTES:
     dance-single:
     :
     Medium:
     1:
     0.471,0.505,0.457,0.139,0.000,330.000,56.000,17.000,0.000,5.000:
0000
0000
0000
0000
,
0000
0000
1001
0000
0001
0001
0000
0001
,
0001
0001
0000
1001
0010
0000
1000
0010
,
0000
0110
0000
0001
0000
0001
0000
0000
,
0000
1000
0000
0010
0001
0000
0000
0001
,
0000
0001
0000
0010
0100
0000
0000
1000
,
0000
0010
0000
0010
0000
0000
0000
0011
,
0000
1100
0000
0010
0000
0020
0000
0000
,
0200
0032
0000
0000
2320
0003
0000
0030
,
3001
0100
0000
0001
0001
0000
0010
0100
,
0000
1000
0000
0000
0100
0010
0000
0002
,
0000
0000
1003
0002
1000
1000
1000
0003
,
0000
0001
0000
1001
0000
0001
0001
0010
,
0000
0000
0000
0001
0000
0001
0010
0000
,
0100
1000
0000
0000
0000
0000
2000
0000
,
0001
0010
0000
0001
0010
0000
0000
3000
,
0000
2001
0002
3000
0100
0100
0100
0103
,
0000
0000
0000
0010
0100
0000
0001
0000
,
1000
0010
0100
0000
0000
0010
0010
0010
,
0000
1000
0001
0100
0010
0000
0010
0010
,
0000
0110
0000
1001
0000
0000
0010
0000
,
0100
0000
0000
0010
1000
0000
0001
0100
,
0010
0000
0010
0010
0000
0001
1000
0000
,
0010
0000
0000
0110
0000
0000
0001
0000
,
0001
0000
0001
1000
0010
1000
0000
0010
,
0100
0000
0000
0011
0000
1000
0100
0000
,
0220
0000
0000
0002
0000
0000
2003
0000
,
0000
0000
0000
3330
0220
0000
0000
0000
,
0330
0001
0001
0000
0000
0001
0000
0010
,
0000
0000
0000
0011
0000
1100
0000
0000
,
0010
0010
0100
0000
0000
0011
0100
0000
,
1010
0000
0001
0010
0000
0111
0000
0100
,
0010
0000
0010
1000
0001
0000
0000
0000
,
0001
0000
0000
1001
0000
0000
0001
0000
,
0110
0000
0000
0001
0000
0000
0001
0001
,
1000
0000
0010
1000
0000
1010
0000
0000
,
0001
0000
0000
0001
0000
1001
0000
0001
,
0000
0001
0000
0001
1000
0010
0000
0100
,
0000
0000
0000
0000
0000
0110
0000
0001
,
0000
0010
0000
0100
0100
1000
0000
1000
,
1000
0100
0000
0010
0001
0001
0000
0010
,
0010
0100
1000
0000
0100
0000
0100
0000
,
0110
1001
0000
0010
0000
0010
0000
0001
,
0010
0100
0000
0100
0000
0000
0000
1000
,
0000
0100
0010
0000
0001
0000
0000
0001
,
0001
0000
0000
1010
0000
0010
0000
0001
,
0011
0010
0000
0100
0000
0010
0100
0010
,
0100
1001
0000
0010
0000
0000
0000
0000
,
1010
0000
0001
0000
0000
0110
0000
0000
,
0001
0000
1100
0000
0000
0010
0000
0000
,
0101
0000
0010
0000
0000
1010
0000
0000
,
0001
0000
0110
0000
0000
0010
0010
0000
,
1000
0001
0100
0010
1000
0001
0100
0010
,
0000
0000
1001
0000
0000
0011
0000
1100
,
0000
0010
0100
0001
0000
0000
1100
0000
,
0110
0000
0000
0010
0100
0010
0000
0010
,
0100
0010
0100
0010
0100
0000
0000
1010
,
0000
0000
0001
0000
1001
0000
0001
1000
,
0001
0000
0000
0000
0000
0001
1000
0001
,
1000
0010
1000
0010
1000
0010
0000
1000
,
0010
1000
0010
1000
0000
0110
0000
0110
,
0000
0000
0001
0000
0001
0000
1000
0010
,
1010
0000
0101
0000
0100
0002
0000
0000
,
0000
0000
1000
0000
0003
0000
0000
1001
,
0000
0001
0000
1000
0010
0100
0000
0000
,
0000
0000
0010
0100
0001
0000
1001
0000
,
0100
0010
0000
0000
0000
0110
0000
0001
,
0000
0000
0001
0000
0001
0000
0000
1000
,
0000
0001
0000
0000
1000
0000
0000
0001
,
0000
0110
0010
0000
0000
0010
0010
0100
,
0000
0001
0000
0000
0001
0100
0001
0000
,
0001
0001
0010
0000
0000
0000
0000
0010
,
0010
0000
1000
0001
0000
0001
0001
1000
,
0000
0000
0001
0000
0000
0001
0000
0001
,
0000
0000
0001
0000
0000
0001
0000
0000
,
1000
0000
0000
0001
0000
0000
1000
0000
,
0000
0100
0000
0000
0110
0000
0000
0001
,
0000
0000
0001
0010
0100
0000
1000
0000
,
0110
0000
0001
0000
0000
1001
0000
1001
,
0000
0000
1001
0000
1001
0000
0000
0001
,
0000
0000
0001
0000
0001
0000
0000
0001
,
0000
0001
0000
0000
0000
0001
0000
0000
,
0000
0000
0001
0000
;
